Insatiable | فانتازيا | Abode2 – July 2015
 
[ Сегодня идет свободное скачивание без начисления Download ]


Статистика раздачи
Качаю: [ 3 ]
Скачал: [ 6 ]
 
   
 
 
 
 
Дэдпул 2 / Deadpool 2 (2018) BDRip 720p | 60 fps Информация о фильме
Русское название: Дэдпул 2
Оригинальное название: Deadpool 2
Год выхода: 2018
Жанр: фантастика, боевик, комедия, приключения
Режиссер: Дэвид Литч
Выпущено: США
Продолжительность: 02:13:59
Перевод: Дублированный
В ролях: Джош Бролин, Райан Рейнольдс, Морена Баккарин, Зази Битц, Брианна Хилдебранд, Брэд Питт, Билл Скарсгард, ТиДжей Миллер, Терри Крюс, Роб Делани
Описание:
Единственный и неповторимый болтливый наемник — вернулся! Ещё более масштабный, ещё более разрушительный и даже ещё более голозадый, чем прежде! Когда в его жизнь врывается суперсолдат с убийственной миссией, Дэдпул вынужден задуматься о дружбе, семье и о том, что на самом деле значит быть героем, попутно надирая 50 оттенков задниц. Потому что иногда чтобы делать хорошие вещи, нужно использовать грязные приёмчики.
Файл
Качество: BDRip 720p (исходник Blu-ray Disc)
Контейнер: MKV (расширение файла)
Видео: 1280x536, 6500 Кбит/сек, 60.000 кадр/сек, AVC, x264, [email protected], 2.40:1, 0.153 Бит/[Пиксели*Кадры]
Аудио 1: DTS, 768 Кбит/сек, 6 канала(ов), 48,0 КГц - Дублированный / Русский
Аудио 2: DTS, 1509 Кбит/сек, 6 канала(ов), 48,0 КГц - Оригинал / Английский
Субтитры: Русские | Полные (Blu-ray CEE, Focs, Ruf), Английские | Полные (Full, SDH)
Форсированные субтитры: Русские
Чаптеры (Главы): Есть

Релиз от:

MediaInfo

Format : Matroska
Format version : Version 2
File size : 8.03 GiB
Duration : 2 h 13 min
Overall bit rate : 8 578 kb/s
Movie name : Deadpool.2.2018.BDRip.720p.envy.60fps
Encoded date : UTC 2018-09-08 04:42:40
Writing application : mkvmerge v5.8.0 ('No Sleep / Pillow') built on Sep 2 2012 15:37:04
Writing library : libebml v1.2.3 + libmatroska v1.3.0
Cover : Yes
Attachments : Cover.jpg
Video
ID : 1
Format : AVC
Format/Info : Advanced Video Codec
Format profile : [email protected]
Format settings : CABAC / 12 Ref Frames
Format settings, CABAC : Yes
Format settings, ReFrames : 12 frames
Codec ID : V_MPEG4/ISO/AVC
Duration : 2 h 13 min
Bit rate : 6 300 kb/s
Width : 1 280 pixels
Height : 536 pixels
Display aspect ratio : 2.40:1
Frame rate mode : Constant
Frame rate : 60.000 FPS
Color space : YUV
Chroma subsampling : 4:2:0
Bit depth : 8 bits
Scan type : Progressive
Bits/(Pixel*Frame) : 0.153
Stream size : 5.74 GiB (71%)
Title : Deadpool.2.2018.BDRip.720p.envy.60fps
Writing library : x264 core 155 r2901 7d0ff22
Encoding settings : cabac=1 / ref=12 / deblock=1:0:0 / analyse=0x3:0x113 / me=umh / subme=11 / psy=1 / psy_rd=1.00:0.00 / mixed_ref=1 / me_range=32 / chroma_me=1 / trellis=2 / 8x8dct=1 / cqm=0 / deadzone=21,11 / fast_pskip=0 / chroma_qp_offset=-2 / threads=17 / lookahead_threads=4 / sliced_threads=0 / nr=0 / decimate=0 / interlaced=0 / bluray_compat=0 / constrained_intra=0 / bframes=10 / b_pyramid=2 / b_adapt=2 / b_bias=0 / direct=3 / weightb=1 / open_gop=0 / weightp=2 / keyint=250 / keyint_min=25 / scenecut=40 / intra_refresh=0 / rc=2pass / mbtree=0 / bitrate=6300 / ratetol=1.0 / qcomp=0.60 / qpmin=0 / qpmax=69 / qpstep=4 / cplxblur=20.0 / qblur=0.5 / ip_ratio=1.40 / pb_ratio=1.30 / aq=1:1.00
Language : English
Default : Yes
Forced : No
Audio #1
ID : 2
Format : DTS
Format/Info : Digital Theater Systems
Codec ID : A_DTS
Duration : 2 h 13 min
Bit rate mode : Constant
Bit rate : 768 kb/s
Channel(s) : 6 channels
Channel layout : C L R Ls Rs LFE
Sampling rate : 48.0 kHz
Frame rate : 93.750 FPS (512 SPF)
Bit depth : 24 bits
Compression mode : Lossy
Stream size : 736 MiB (9%)
Title : DTS 5.1 768 kb/s
Language : Russian
Default : Yes
Forced : No
Audio #2
ID : 3
Format : DTS ES
Format/Info : Digital Theater Systems
Commercial name : DTS-ES Matrix
Codec ID : A_DTS
Duration : 2 h 13 min
Bit rate mode : Constant
Bit rate : 1 509 kb/s
Channel(s) : 6 channels
Channel(s)_Original : 7 channels
Channel layout : C L R Ls Rs Cb LFE
Sampling rate : 48.0 kHz
Frame rate : 93.750 FPS (512 SPF)
Bit depth : 24 bits
Compression mode : Lossy
Stream size : 1.41 GiB (18%)
Title : DTS 5.1 1509 kb/s
Language : English
Default : No
Forced : No
Text #1
ID : 4
Format : UTF-8
Codec ID : S_TEXT/UTF8
Codec ID/Info : UTF-8 Plain Text
Title : Forced
Language : Russian
Default : Yes
Forced : Yes
Text #2
ID : 5
Format : UTF-8
Codec ID : S_TEXT/UTF8
Codec ID/Info : UTF-8 Plain Text
Title : Blu-ray CEE
Language : Russian
Default : No
Forced : No
Text #3
ID : 6
Format : UTF-8
Codec ID : S_TEXT/UTF8
Codec ID/Info : UTF-8 Plain Text
Title : Focs
Language : Russian
Default : No
Forced : No
Text #4
ID : 7
Format : UTF-8
Codec ID : S_TEXT/UTF8
Codec ID/Info : UTF-8 Plain Text
Title : Ruf
Language : Russian
Default : No
Forced : No
Text #5
ID : 8
Format : UTF-8
Codec ID : S_TEXT/UTF8
Codec ID/Info : UTF-8 Plain Text
Language : English
Default : No
Forced : No
Text #6
ID : 9
Format : UTF-8
Codec ID : S_TEXT/UTF8
Codec ID/Info : UTF-8 Plain Text
Title : SDH
Language : English
Default : No
Forced : No
Menu
00:00:00.000 : en:Chapter 01
00:02:31.693 : en:Chapter 02
00:07:55.516 : en:Chapter 03
00:10:46.228 : en:Chapter 04
00:14:21.193 : en:Chapter 05
00:17:42.978 : en:Chapter 06
00:19:10.691 : en:Chapter 07
00:24:14.369 : en:Chapter 08
00:27:11.630 : en:Chapter 09
00:37:17.360 : en:Chapter 10
00:42:11.820 : en:Chapter 11
00:44:40.427 : en:Chapter 12
00:49:30.926 : en:Chapter 13
00:52:20.470 : en:Chapter 14
00:56:47.612 : en:Chapter 15
01:01:00.281 : en:Chapter 16
01:04:47.258 : en:Chapter 17
01:07:22.997 : en:Chapter 18
01:09:45.097 : en:Chapter 19
01:11:46.010 : en:Chapter 20
01:15:21.016 : en:Chapter 21
01:19:19.212 : en:Chapter 22
01:21:00.188 : en:Chapter 23
01:24:50.001 : en:Chapter 24
01:29:10.845 : en:Chapter 25
01:32:30.419 : en:Chapter 26
01:36:11.390 : en:Chapter 27
01:38:18.851 : en:Chapter 28
01:42:06.328 : en:Chapter 29
01:44:18.710 : en:Chapter 30
01:46:03.774 : en:Chapter 31
01:48:06.730 : en:Chapter 32
01:51:31.976 : en:Chapter 33
01:55:05.398 : en:Chapter 34
01:58:16.047 : en:Chapter 35
02:02:04.317 : en:Chapter 36

[Цитировать]

звук отсутствует

[Цитировать]



Показать сообщения:    

Текущее время: 09-Сен 20:55

Часовой пояс: UTC + 6


Вы не можете начинать темы
Вы не можете отвечать на сообщения
Вы не можете редактировать свои сообщения
Вы не можете удалять свои сообщения
Вы не можете голосовать в опросах
Вы не можете прикреплять файлы к сообщениям
Вы не можете скачивать файлы

!ВНИМАНИЕ!
Сайт не предоставляет электронные версии произведений, а занимается лишь коллекционированием и каталогизацией ссылок, присылаемых и публикуемых на форуме нашими читателями. Если вы являетесь правообладателем какого-либо представленного материала и не желаете, чтобы ссылка на него находилась в нашем каталоге, свяжитесь с нами, и мы незамедлительно удалим ее. Файлы для обмена на трекере предоставлены пользователями сайта, и администрация не несет ответственности за их содержание. Просьба не заливать файлы, защищенные авторскими правами, а также файлы нелегального содержания!